首页 时尚社会游戏星座文化美食健康新闻财经旅游宠物娱乐动漫教育汽车体育搞笑历史科技

林玉英

发布时间: 来源大连医科大学校友网
加载中… 加载中... http://blog.sina.com.cn/u/2719169864 [订阅][手机订阅] 首页 博文目录 图片 关于我 个人资料 启轩的音乐 微博 加好友 发纸条 写留言 加关注 博客等级: 博客积分:0 博客访问:816,363 关注人气:253 获赠金笔:0支 赠出金笔:0支 荣誉徽章: 相关博文 更多>> 推荐博文 航运界过分炒作“无人船”的目的 上港胜利感谢川崎前锋 医者之声96 别把《 「旅行青蛙」凭什么牵动我们的心 从躺赢到成为遗产,失落的丝绸业 别让“义务教育”束缚校内托管 a站成功续命,不过她依旧在寻找 查看更多>> 谁看过这篇博文 加载中… 正文 字体大小:大 中 小 林玉英-无结局的爱 恒音唱片 (115)wav整轨 (2012-12-19 08:03:07)转载▼ 标签: 杂谈 分类: 华语无损 恒音唱片 (115)wav整轨" title="林玉英-无结局的爱 恒音唱片 (115)wav整轨" />点燃一根烟无结局的爱想你在梦里对不起如何说出口为君愁一封旧情书夏天的海边勇敢的人爱的誓言我该怎么做痴情泪exact audio copy v0.99 prebeta 4 from 23. january 2008eac 抓取日志文件从28. 十二月 2011, 18:58未知艺术家 / 未知标题使用驱动器  :tsstcorpdvd-romts-h353c   adapter:2  id: 0读取模式    : 保护使用精确流   : 是废除音频缓冲 : 是使用 c2 指针 : 否读取偏移校正               : 0读取 lead-in 和 lead-out      : 否用静音填充抓取中丢失偏移的采样 : 是去除首尾静音块             : 否在 crc 计算中使用了空样本     : 否已用接口                 : win nt 及2000 本地 win32 接口所用输出格式 : 内部 wav 函数样本格式    : 44.100hz;16 bit;立体声被抓轨 cd 的 toc    音轨|   开始  |  长度   | 起始扇区 |结尾扇区   --------------------------------------------------     1  |  0:00.00|  2:36.50 |     0  |  11749       2  |  2:36.50|  3:31.12 |  11750  |  27586       3  |  6:07.62|  4:09.50 |  27587  |  46311        4  | 10:17.37|  4:07.25 |  46312  |  64861        5  | 14:24.62|  3:40.25 |  64862  |  81386        6  | 18:05.12|  4:11.38 |  81387  |  100249        7  | 22:16.50|  3:19.62|  100250  |  115236        8  | 25:36.37|  3:49.13|  115237  |  132424        9  | 29:25.50|  3:19.00|  132425  |  147349       10  | 32:44.50|  4:01.62|  147350  |  165486       11  | 36:46.37|  3:26.25|  165487  |  180961       12  | 40:12.62|  4:12.25|  180962  |  199886  范围状态及错误已选择范围    文件名f:\林玉英-无结局的爱.wav    峰值电平 100.0%    范围质量 99.9%    复制 crce0443930    复制成功没有错误发生点此下载 分享: 喜欢 0 赠金笔 阅读┊ 评论 ┊ 收藏 ┊转载 ┊ 喜欢▼ ┊打印┊举报 已投稿到: 排行榜 加载中,请稍候...... 前一篇:大哲《末日情歌》[320k/mp3] [bd/db] 后一篇:林玉英-海韻 恒音唱片(115)整轨wav 评论 重要提示:警惕虚假中奖信息 [发评论] 评论加载中,请稍候... 发评论 登录名: 密码: 找回密码 注册 记住登录状态昵   称:评论并转载此博文 发评论 以上网友发言只代表其个人观点,不代表新浪网的观点或立场。 < 前一篇大哲《末日情歌》[320k/mp3] [bd/db] 后一篇 >林玉英-海韻 恒音唱片(115)整轨wav    新浪blog意见反馈留言板 不良信息反馈 电话:4006900000 提示音后按1键(按当地市话标准计费) 欢迎批评指正 新浪简介 | about sina | 广告服务 | 联系我们 | 招聘信息 | 网站律师 | sina english | 会员注册 | 产品答疑 copyright © 1996 - 2018 sina corporation, all rights reserved 新浪公司 版权所有 林翠萍现在老了的相片
  • 林翠萍现在老了的相片
  • 相关阅读